Trailer for the book:

Book Trailer — Video Transcript

  • Covertise Presents
  • a Bestselling Book by Colin Mack
  • Small Business Marketing Tips
  • Increase Profits By 30% In 30 Days
  • Engage More Prospects
  • Win More Customers
  • Uncover Hidden Profits
  • Slash Advertising Budgets
  • Create Raving Fans
  • Dominate Your Market
  • Small Business Marketing Tips by Colin Mack
  • Claim Your Copy Today

Video Meta Information

General

Complete name: small-business-marketing-tips-colin-mack-trailer-v2.mp4
Format: MPEG-4
Format profile: Base Media / Version 2
Codec ID: mp42
File size: 47.0 MiB
Duration: 1mn 12s
Overall bit rate mode: Variable
Overall bit rate: 5 457 Kbps
Encoded date: UTC 2011-11-17 07:25:38
Tagged date: UTC 2011-11-17 07:25:38
©TIM: 00;00;00;00
©TSC: 30000
©TSZ: 1001

Video

ID: 1
Format: AVC
Format/Info: Advanced Video Codec
Format profile: Main@L3.2
Format settings, CABAC: Yes
Format settings, ReFrames: 3 frames
Codec ID: avc1
Codec ID/Info: Advanced Video Coding
Duration: 1mn 12s
Bit rate: 5 202 Kbps
Width: 1 280 pixels
Height: 720 pixels
Display aspect ratio: 16:9
Frame rate mode: Constant
Frame rate: 29.970 fps
Standard: NTSC
Color space: YUV
Chroma subsampling: 4:2:0
Bit depth: 8 bits
Scan type: Progressive
Bits/(Pixel*Frame): 0.188
Stream size: 44.8 MiB (95%)
Language: English
Encoded date: UTC 2011-11-17 07:25:38
Tagged date: UTC 2011-11-17 07:25:38

Audio

ID: 2
Format: AAC
Format/Info: Advanced Audio Codec
Format profile: LC
Codec ID: 40
Duration: 1mn 12s
Bit rate mode: Variable
Bit rate: 192 Kbps
Maximum bit rate: 255 Kbps
Channel(s): 2 channels
Channel positions: Front: L R
Sampling rate: 48.0 KHz
Compression mode: Lossy
Stream size: 1.63 MiB (3%)
Language: English
Encoded date: UTC 2011-11-17 07:25:38
Tagged date: UTC 2011-11-17 07:25:38
Material_Duration: 72320
Material_StreamSize: 1711950

Small Business Marketing Tips

“50 Target Marketing Secrets to Uncover the Hidden Goldmine in Your Business and Instantly Explode Profits in Your Small Business Marketing”

by Colin Mack

Paperback: 148 pages

Publisher: Covertise (October 12, 2011)

ISBN-10: 0984719202

ISBN-13: 978-0984719204 (978-0-9847192-0-4)

Library of Congress Control Number (LCCN): 2011940873

Language: English

Product Dimensions: 8.5 x 5.5 x 0.3 inches

Shipping Weight: 8.8 ounces

  • Facebook
  • TwitThis